회원로그인

Movies

멜로 [한글] 사랑해, 파리 Paris, je taime (2006) - 1080p x265 HEVC - FRE (ENG SU…

Page

Name : 松本 Hit : 28 Comment : 0
Date18-02-14 18:42

File

Contents

  • File List ( 멜로 [한글] 사랑해, 파리 Paris, je taime 2006 - 1080p x265 HEVC - FRE ENG SUBS [BRSHNKV].torrent )
  • Paris, je t'aime (2006) - 1080p x265 HEVC - FRE (ENG SUBS) [BRSHNKV]/Paris, je t'aime .mp4 (1.83G)
  • Paris, je t'aime (2006) - 1080p x265 HEVC - FRE (ENG SUBS) [BRSHNKV]/Paris, je t'aime .srt (83.24K)
  • Paris, je t'aime (2006) - 1080p x265 HEVC - FRE (ENG SUBS) [BRSHNKV]/Torrent Downloaded From Katcr.co - Kickasstorrents.txt (110B)

AEnENUX.jpg

 

2r4aPNK.png

 

hXGVGIF.png

 

EgXYvrM.png

 

dWClg81.png

 

nHXFCxk.png

 


Paris, je taime is about the plurality of cinema in one mythic location: Paris, the City of Love. Twenty filmmakers have five minutes each; the audience must weave a single narrative out of twenty moments. The 20 moments are fused by transitional interstitial sequences and also via the introduction and epilogue. Each transition begins with the last shot of the previous film and ends with the first shot of the following film, extending the enchantment and the emotion of the previous segment, preparing the audience for a surprise, and providing a cohesive atmosphere. Theres a reappearing mysterious character who is a witness to the Parisian life. A common theme of Paris and love fuses all.      Tech: Format : MPEG-4 Format profile : Base Media / Version 2 Codec ID : mp42 File size : 1.83 GiB Duration : 2h 0mn Overall bit rate mode : Variable Overall bit rate : 2 170 Kbps Movie name : Paris, je taime - 1080p x265 HEVC [BRSHNKV] Encoded date : UTC 2018-02-08 16:22:36 Tagged date : UTC 2018-02-08 16:22:36 Writing application : HandBrake 20160211184813-ffd8cb1-master 2016021301 Video ID : 1 Format : HEVC Format/Info : High Efficiency Video Coding Format profile : Main @Main Codec ID : hev1 Codec ID/Info : High Efficiency Video Coding Duration : 2h 0mn Bit rate : 2 000 Kbps Width : 1 912 pixels Height : 1 036 pixels Display aspect ratio : 1.85:1 Frame rate mode : Variable Frame rate : 23.976 fps Minimum frame rate : 23.974 fps Maximum frame rate : 23.981 fps Color space : YUV Chroma subsampling : 4:2:0 Bit depth : 10 bits Bits/(Pixel*Frame) : 0.042 Stream size : 1.68 GiB (92%) Writing library : x265 1.9:[Mac OS X][clang 7.0.2][64 bit] 10bit Encoded date : UTC 2018-02-08 16:22:36 Tagged date : UTC 2018-02-08 16:22:36 Color range : Limited Color primaries : BT.709 Transfer characteristics : BT.709 Matrix coefficients : BT.709 Audio ID : 2 Format : AAC Format/Info : Advanced Audio Codec Format profile : LC Codec ID : 40 Duration : 2h 0mn Bit rate mode : Variable Bit rate : 163 Kbps Channel(s) : 2 channels Channel positions : Front: L R Sampling rate : 48.0 KHz Compression mode : Lossy Stream size : 140 MiB (8%) Title : Stereo / Stereo Language : French Encoded date : UTC 2018-02-08 16:22:36 Tagged date : UTC 2018-02-08 16:22:3 열 여덟 빛깔 사랑의 세레나데 파리, 어느 곳에 가든 당신은 사랑에 빠진다 # 몽마르뜨 언덕_브뤼노 포달리데 <검은 옷의 부인의 내음> 몽마르뜨 좁은 골목에서 주차하던 남자, 운명의 여자를 만나다! # 세느 강변_거린더 차다 <슈팅 라이크 베컴> 세느 강변에서 헌팅하던 프랑스 소년, 이슬람 소녀에게 마음을 빼앗기다! # 마레 지구_구스 반 산트 <굿 윌 헌팅><엘리펀트> 프랑스 게이 청년, 불어가 서툰 미국 청년에게 사랑을 느끼다! # 튈르리 역_조엘&에단 코엔 <파고> 소심한 미국인 관광객, 관광 가이드북에서 파리의 현실을 온몸으로 배우다! # 16구역_월터 살레스&다니엘라 토마스 <중앙역><모터싸이클 다이어리> 젊은 이민자 여성, 자신의 아기는 보육원에 맡기고 다른 아이를 돌보게 되다! # 차이나타운_크리스토퍼 도일 <중경삼림><화양연화>〈2046> 촬영 중년의 세일즈맨, 과격한 차이나타운 미장원 원장과 치명적 사랑에 빠지다! # 바스티유_이자벨 코이셋 <나 없는 내 인생> 이혼을 선언하려던 남편, 부인의 백혈병 선고로 다시 터닝포인트를 맞이하다! # 빅토아르 광장_스와 노부히로〈M/Other>〈H 스토리> 죽은 아들을 그리워하던 여자, 카우보이의 도움으로 아들과 마지막 만남을 갖다! # 에펠 탑_실뱅 쇼메 <벨빌의 세 쌍둥이> 외로운 마임 아티스트, 유치장에서 소울메이트를 맞닥뜨리다! # 몽소 공원_알폰소 쿠아론 <위대한 유산><해리 포터와 아즈카반의 죄수> 중년의 아버지 어린 나이에 엄마가 된 딸과 인생을 논하다! # 앙팡 루즈 구역_올리비에 아사야스 <클린> 미국인 여배우, 무심한 듯 상냥한 마약 딜러에게 묘하게 끌리다! # 축제 광장_올리버 슈미츠 <하이잭 스토리> 총상 입은 흑인 남자, 죽음의 순간 응급구조원 소녀에게 커피를 권하다! # 피갈 거리_리처드 라그라베네즈 <키스> 애정 식은 중년부부, 파리의 홍등가에서 섹시한 러브게임을 시작하다! # 마들렌느 구역_빈센조 나탈리 <큐브><싸이퍼> 미국인 관광객, 아름다운 뱀파이어에게 마음도 피도 모두 빼앗겨버리다! # 페르 라세즈 공동묘지_웨스 크레이븐 <스크림><나이트 플라이트> 유머감각 없는 까칠한 남편, 오스카 와일드의 유령에게 한 수 배우다! # 생 드니 외곽_톰 티크베어 <롤라 런> 아름다운 미국인 배우 지망생과 시각 장애인의 거짓말 같은 사랑! # 라탱 구역_프레데릭 오뷔르탱&제라르 드파르디유 <연못 위의 다리> 위기의 부부, 이혼의 순간 지나간 사랑을 회상하다! # 14구역_알렉산더 페인 <어바웃 슈미트><사이드웨이> 무료한 일상을 탈출한 미국인 주부, 낭만 도시 파리와 사랑에 빠지다!

멜로 [한글] 사랑해, 파리 Paris, je taime (2006) - 1080p x265 HEVC - FRE (ENG SUBS) [BRSHNKV]
Like 0 Bad 0

댓글목록

등록된 댓글이 없습니다.

Total 20,643 ( 1 / 1,033 Page )
No Title View Size Date
20643 [무] 스크램블 Scramble.2017.720p.BluRay.x264-x0r 새글첨부파일 5 2.17G 11:13
20642 [무] 더 타임 오브 데어 라이브즈 The.Time.Of.Their.Lives.2017.720p.BluRay… 새글첨부파일 6 2.19G 11:12
20641 [무] 룸 이스케이프 Escape.Room.2017.720p/1080p.BluRay.H264.AAC-RARB… 새글첨부파일 5 1.09G 11:12
20640 [무] 이스케이프 룸 Escape Room 2017 1080p BluRay x264 AAC - Hon3y 새글첨부파일 5 1.77G 11:11
20639 [무] 룸 이스케이프 Escape.Room.2017.720p/1080p.BluRay.x264.DTS-FGT 새글첨부파일 7 4.37G 11:11
20638 [한글] 폭력의 역사 A.History.Of.Violence.2005.1080p.BluRay.x264-CiN… 첨부파일 17 6.56G 02:02
20637 [한글] 플러쉬 Flushed Away 2006 (1080p NF WEB-DL x265 HEVC 10bit … 첨부파일 9 1.69G 02:01
20636 [한글] 스페이스 침스: 우주선을 찾아서 Space Chimps 2008 (1080p BluRay x265 … 첨부파일 9 1.42G 02:00
20635 [한글] 인어 공주 The Little Mermaid 1989 1080p Blu-ray EUR AVC DTS… 첨부파일 9 38.2G 01:58
20634 [한글] 부그와 엘리엇: 늑대 인간의 공포 Open Season Scared Silly 2015 (1080p… 첨부파일 8 1.6G 01:58
20633 [한글] 배트맨: 가스등 아래의 고담 Batman.Gotham.by.Gaslight.2018.1080p.Bl… 첨부파일 16 4.37G 02-20
20632 [한글] 마셜 Marshall.2017.1080p.BluRay.x264.Hi10P.DTS-ONe 첨부파일 8 4.35G 02-20
20631 [한글 sup] 쓰리 빌보드 Three.Billboards.Outside.Ebbing.Missouri.201… 첨부파일 5 4.38G 02-20
20630 특별시민 The Mayor.2017.H264.1080p-HDTV.KBS 첨부파일 15 1.22G 02-20
20629 [한글] 알.이.씨4: 아포칼립스 REC.4.Apocalypse.2014.SPANISH.720p+1080p.… 첨부파일 7 1.15G 02-20
20628 [한글] 알.이.씨 3: 제네시스 Rec.3.Genesis.2012.SPANISH.720p+1080p.Blu… 첨부파일 7 993.5M 02-20
20627 [한글] 알.이.씨 2 Rec.2.2009.SPANISH.720p+1080p.BluRay.H264.AAC-V… 첨부파일 9 1.02G 02-20
20626 [한글] 알.이.씨 Rec.2007.1080p.BluRay.x264-CULTHD 첨부파일 9 6.56G 02-20
20625 [한글] 리얼 술래잡기 Tag (2015) (1080p BluRay 10-bit x265 HEVC AAC 5… 첨부파일 15 2.61G 02-20
20624 [한글] 부기맨 2 Boogeyman.II.2007.1080p.BluRay.x264-BestHD 첨부파일 12 7.95G 02-20
Search