회원로그인

Movies

[한글] 사랑과 영혼 Ghost (1990) 1080p DD5 1 - 2 0 x264 Phun Psyz

Page

Name : 松本 Hit : 186 Comment : 0
Date18-02-08 20:24

File

Contents

  • File List ( [한글] 사랑과 영혼 Ghost 1990 1080p DD5 1 - 2 0 x264 Phun Psyz.torrent )
  • Ghost (1990) 1080p DD5.1 - 2.0 x264 Phun Psyz.mp4 (2.04G)

ax2yyAh.jpg

 

CEnrpeu.png

 

BPFcwr6.png

 

Gb3NoMy.png

 

hoXyawF.png

 

97pqvR8.png

 


www.imdb.com/title/tt0099653/ After a young man is murdered, his spirit stays behind to warn his lover of impending danger, with the help of a reluctant psychic.  Format : MPEG-4 Format profile : Base Media / Version 2 Codec ID : mp42 (isom/iso2/avc1/mp41) File size : 2.04 GiB Duration : 2 h 6 min Overall bit rate mode : Variable Overall bit rate : 2 311 kb/s Video ID : 1 Format : AVC Format/Info : Advanced Video Codec Format profile :  Format settings : CABAC / 8 Ref Frames Format settings, CABAC : Yes Format settings, RefFrames : 8 frames Codec ID : avc1 Codec ID/Info : Advanced Video Coding Duration : 2 h 6 min Bit rate : 1 824 kb/s Width : 1 920 pixels Height : 1 080 pixels Display aspect ratio : 16:9 Frame rate mode : Variable Frame rate : 23.976 (24000/1001) FPS Minimum frame rate : 23.974 FPS Maximum frame rate : 23.981 FPS Color space : YUV Chroma subsampling : 4:2:0 Bit depth : 8 bits Scan type : Progressive Bits/(Pixel*Frame) : 0.037 Stream size : 1.61 GiB (79%) Writing library : x264 core 148 r2708 86b7198 Audio #1 ID : 2 Format : AC-3 Format/Info : Audio Coding 3 Format settings, Endianness : Big Codec ID : ac-3 Duration : 2 h 6 min Bit rate mode : Constant Bit rate : 320 kb/s Channel(s) : 6 channels Channel positions : Front: L C R, Side: L R, LFE Sampling rate : 48.0 kHz Frame rate : 31.250 FPS (1536 SPF) Bit depth : 16 bits Compression mode : Lossy Stream size : 290 MiB (14%) Title : Surround / Surround Language : English Service kind : Complete Main Default : Yes Audio #2 ID : 3 Format : AAC Format/Info : Advanced Audio Codec Format profile : LC Codec ID : mp4a-40-2 Duration : 2 h 6 min Bit rate mode : Variable Bit rate : 160 kb/s Channel(s) : 2 channels Channel positions : Front: L R Sampling rate : 48.0 kHz Frame rate : 46.875 FPS (1024 SPF) Compression mode : Lossy Stream size : 145 MiB (7%) Title : Stereo / Stereo Language : English 세상 어디에 있든 나는 오직 당신을 향합니다 갑작스러운 사고로 연인 ‘몰리’의 곁을 떠나게 된 ‘샘’은 천국으로 향하지 못하고 그녀의 곁을 맴돈다. 하지만 육체가 없는 ‘샘’의 존재를 그녀는 알아차리지 못하고… 다른 영혼의 도움을 받게 된 ‘샘’은 자신만의 방식으로 그녀에게 사랑을 전하고자 하는데…

[한글] 사랑과 영혼 Ghost (1990) 1080p DD5 1 - 2 0 x264 Phun Psyz
Like 0 Bad 0

댓글목록

등록된 댓글이 없습니다.

Total 20,697 ( 1 / 1,035 Page )
No Title View Size Date
20697 [한글] 토르 - 라그나로크 2017 720p + 1080p BluRay x264 AC3 - nature b… 새글첨부파일 6 4.37G 09:13
20696 [한글] 윈터스 본.Winters.Bone.2010.1080p.BluRay.x264.DTS-FGT 새글첨부파일 7 8.9G 03:59
20695 [한글] 미행 Following.1998.1080p.BluRay.x264-[YTS.ME] 새글첨부파일 6 1.02G 03:58
20694 멜로 [한글] 졸업 The Graduate 1967 Criterion Collection 2016 4K Re… 새글첨부파일 5 2.03G 03:57
20693 더 굿 네이버 The.Good.Neighbor.2016.1080p.BluRay.x264-[YTS.PE] 새글첨부파일 6 1.46G 03:57
20692 [한글] 닌자의 나라 Shinobi no Kuni 2017 480p x264 AAC 새글첨부파일 10 1.02G 02:53
20691 [한글] 어쌔신: 더 비기닝 American.Assassin.2017.1080p.BluRay.x264-[YT… 새글첨부파일 11 1.64G 02:52
20690 [한글] 디트로이트 Detroit 2017 (1080p Bluray x265 HEVC 10bit AAC 5.… 새글첨부파일 10 5.61G 02:51
20689 [한글] 콜로설 Colossal.2016.1080p.BluRay.x264.DTS-HD.MA.5.1-FGT 새글첨부파일 10 9.17G 02:51
20688 [한글] 조디악 Zodiac.2007.Directors.Cut.1080p.BluRay.x264-MHQ 새글첨부파일 10 7.35G 02:46
20687 [한글] 로드 하우스.Road.House.1989.1080p.BluRay.x264-Japhson 새글첨부파일 10 7.93G 02:45
20686 [한글] 캘린더 걸스 Calendar.Girls.2003.1080p.AMZN.WEBRip.AAC.5.1.x2… 새글첨부파일 9 2.24G 02:45
20685 [한글] 커리지 언더 파이어 Courage.Under.Fire.1996.720p+1080p.BluRay.H2… 새글첨부파일 9 2.22G 02:44
20684 [한글] 뉴 잭 시티 New.Jack.City.1991.720p+1080p.BluRay.H264.AAC-RA… 새글첨부파일 8 1.21G 02:43
20683 [한글] 겟 카터 Get.Carter.2000.720p+1080p.BluRay.H264.AAC-RARBG 새글첨부파일 11 1.24G 02:41
20682 [한글] 하치 이야기 Hachiko.A.Dog%27s.Story.2009.BluRay.720p.DTS.x26… 새글첨부파일 8 19.44G 02:40
20681 [한글] 피메일 파이트 스쿼드 F.F.C Female Fight Club 2016 720p BRRip 800… 새글첨부파일 11 801.72M 02:39
20680 [한글] 백우즈 The.Backwoods.2006.1080p.AMZN.WEBRip.DDP2.0.x264-mo… 새글첨부파일 9 4.85G 02:39
20679 [한글] 런던에서 브라이튼까지 London.to.Brighton.2006.1080p.BluRay.H264.A… 새글첨부파일 10 1.57G 02:38
20678 [한글] 쟈니 잉글리쉬2 : 네버다이 Johnny.English.Reborn.2011.720p.BluRay.… 새글첨부파일 9 1.23G 02:37
Search