회원로그인

Movies

[한글] 레이디 가가 155cm의 도발 Gaga Five Foot Two (2017) (1080p WEBRip x265 HEV…

Page

Name : 松本 Hit : 279 Comment : 0
Date18-01-17 19:21

File

Contents

  • File List ( [한글] 레이디 가가 155cm의 도발 Gaga Five Foot Two 2017 1080p WEBRip x265 HEVC 10bit AAC 5 1 Joy [UTR].torrent )
  • Gaga Five Foot Two 2017 (1080p x265 10bit S95 Joy).mkv (1.33G)

2ARrZHr.jpg

 

5vKvYBX.png

 

KY9c5tN.jpg

 

r6YOnoF.jpg

 

nc4jfIn.jpg

 

g9DmUEl.jpg

 


Media Information  Media Information Code: General Format : Matroska Format version : Version 4 / Version 2 File size : 1.33 GiB Duration : 1 h 40 min Overall bit rate : 1 886 kb/s Movie name : Gaga Five Foot Two 2017 (1080p x265 10bit S95 Joy)[UTR] Encoded date : UTC 2018-01-14 22:43:42 Writing application : mkvmerge v19.0.0 (Brave Captain) 64-bit Writing library : libebml v1.3.5 + libmatroska v1.4.8 Cover : Yes Attachments : cover.jpg Writing frontend : StaxRip v1.7.0.3 Video ID : 1 Format : HEVC Format/Info : High Efficiency Video Coding Format profile : [email protected] Codec ID : V_MPEGH/ISO/HEVC Duration : 1 h 40 min Bit rate : 1 501 kb/s Width : 1 920 pixels Height : 1 080 pixels Display aspect ratio : 16:9 Frame rate mode : Constant Frame rate : 24.000 FPS Color space : YUV Chroma subsampling : 4:2:0 Bit depth : 10 bits Bits/(Pixel*Frame) : 0.030 Stream size : 1.06 GiB (80%) Writing library : x265 2.5+31-df2de6ea407d:[Windows][MSVC 1911][64 bit] 10bit Audio ID : 2 Format : AC-3 Format/Info : Audio Coding 3 Mode extension : CM (complete main) Format settings, Endianness : Big Codec ID : A_AC3 Duration : 1 h 40 min Bit rate mode : Constant Bit rate : 384 kb/s Channel(s) : 6 channels Channel positions : Front: L C R, Side: L R, LFE Sampling rate : 48.0 kHz Frame rate : 31.250 FPS (1536 spf) Bit depth : 16 bits Compression mode : Lossy Stream size : 277 MiB (20%) Language : English Default : No Forced : No Subtitle #1 ID : 3 Format : UTF-8 Codec ID : S_TEXT/UTF8 Codec ID/Info : UTF-8 Plain Text Duration : 1 h 13 min Bit rate : 0 b/s Count of elements : 13 Stream size : 471 Bytes (0%) Language : English Default : No Forced : Yes  넷플릭스 오리지널 다큐멘터리 <레이디 가가 155cm의 도발>은 레이디 가가의 커리어에 있어서 가장 중요한 시기를 조명하며 그 동안 볼 수 없었던 그녀의 개인적인 순간들을 보여준다. 영화 <뱅크시 더즈 뉴욕, 미 엣 더 주(Banksy Does New York, Me at the Zoo)>로 에미상 후보에 오른 크리스 무카벨 감독이 시네마 베리테 기법으로 촬영한 <레이디 가가 155cm의 도발>은 친한 친구들, 가족들과 시간을 보내는 모습부터, 2016년 앨범 조앤을 녹음하고 발매를 준비하는 과정, 그리고 남모를 아픔을 이겨내기 위해 분투하는 모습까지 평소에는 볼 수 없었던 가가의 꾸밈없는 모습들을 그대로 보여준다.   무카벨 감독은 성공한 가수로서의 삶보다 정신적, 신체적 고통을 감당하며 살아가는 가가의 삶을 약 8개월 동안 흥미로운 시선으로 카메라에 포착해냈다. 이번 다큐멘터리는 가족들의 세례식에 참석하거나 조부모님을 방문하고 집에서 애완견과 놀며 요리를 하는 등 무대 위에서의 화려한 가수가 아닌 한 여성으로서의 인간적인 모습에 집중한다. 그리고 나아가 가가의 이러한 삶이 그녀의 창작과정에 어떠한 영감을 줬는지를 보여주며, 불과 155cm의 아티스트가 어떻게 몇 년 안에 전 세계적으로 사랑 받는 거대한 존재가 될 수 있었는지를 이야기한다.

[한글] 레이디 가가 155cm의 도발 Gaga Five Foot Two (2017) (1080p WEBRip x265 HEVC 10bit AAC 5 1 Joy) [UTR]
Like 0 Bad 0

댓글목록

등록된 댓글이 없습니다.

Total 20,697 ( 1 / 1,035 Page )
No Title View Size Date
20697 [한글] 토르 - 라그나로크 2017 720p + 1080p BluRay x264 AC3 - nature b… 새글첨부파일 6 4.37G 09:13
20696 [한글] 윈터스 본.Winters.Bone.2010.1080p.BluRay.x264.DTS-FGT 새글첨부파일 7 8.9G 03:59
20695 [한글] 미행 Following.1998.1080p.BluRay.x264-[YTS.ME] 새글첨부파일 6 1.02G 03:58
20694 멜로 [한글] 졸업 The Graduate 1967 Criterion Collection 2016 4K Re… 새글첨부파일 5 2.03G 03:57
20693 더 굿 네이버 The.Good.Neighbor.2016.1080p.BluRay.x264-[YTS.PE] 새글첨부파일 6 1.46G 03:57
20692 [한글] 닌자의 나라 Shinobi no Kuni 2017 480p x264 AAC 새글첨부파일 10 1.02G 02:53
20691 [한글] 어쌔신: 더 비기닝 American.Assassin.2017.1080p.BluRay.x264-[YT… 새글첨부파일 11 1.64G 02:52
20690 [한글] 디트로이트 Detroit 2017 (1080p Bluray x265 HEVC 10bit AAC 5.… 새글첨부파일 10 5.61G 02:51
20689 [한글] 콜로설 Colossal.2016.1080p.BluRay.x264.DTS-HD.MA.5.1-FGT 새글첨부파일 10 9.17G 02:51
20688 [한글] 조디악 Zodiac.2007.Directors.Cut.1080p.BluRay.x264-MHQ 새글첨부파일 10 7.35G 02:46
20687 [한글] 로드 하우스.Road.House.1989.1080p.BluRay.x264-Japhson 새글첨부파일 10 7.93G 02:45
20686 [한글] 캘린더 걸스 Calendar.Girls.2003.1080p.AMZN.WEBRip.AAC.5.1.x2… 새글첨부파일 9 2.24G 02:45
20685 [한글] 커리지 언더 파이어 Courage.Under.Fire.1996.720p+1080p.BluRay.H2… 새글첨부파일 9 2.22G 02:44
20684 [한글] 뉴 잭 시티 New.Jack.City.1991.720p+1080p.BluRay.H264.AAC-RA… 새글첨부파일 8 1.21G 02:43
20683 [한글] 겟 카터 Get.Carter.2000.720p+1080p.BluRay.H264.AAC-RARBG 새글첨부파일 11 1.24G 02:41
20682 [한글] 하치 이야기 Hachiko.A.Dog%27s.Story.2009.BluRay.720p.DTS.x26… 새글첨부파일 8 19.44G 02:40
20681 [한글] 피메일 파이트 스쿼드 F.F.C Female Fight Club 2016 720p BRRip 800… 새글첨부파일 11 801.72M 02:39
20680 [한글] 백우즈 The.Backwoods.2006.1080p.AMZN.WEBRip.DDP2.0.x264-mo… 새글첨부파일 9 4.85G 02:39
20679 [한글] 런던에서 브라이튼까지 London.to.Brighton.2006.1080p.BluRay.H264.A… 새글첨부파일 10 1.57G 02:38
20678 [한글] 쟈니 잉글리쉬2 : 네버다이 Johnny.English.Reborn.2011.720p.BluRay.… 새글첨부파일 9 1.23G 02:37
Search